[Цитировать]

FStoppers - Mike Kelley - Where Art Meets Architecture
Страна: USA
Тематика: Фото
Тип раздаваемого материала: Видеоурок
Продолжительность: 7:00:00
Год выпуска: 2013
Язык: Английский
Перевод: Отсутствует
Описание: (ENG) Fstoppers.com has teamed up with Mike Kelley to produce Where Art Meets Architecture a 7 hour long digital download on how to photograph real estate architecture and interiors. In this photography tutorial Mike will explain each and every technique he uses to produce his stunning images. The full photography tutorial is broken down into three chapters each covering the tools necessary to succeed in the different niche markets within the field of interior photography.
http://fstoppers.com/how-to-photograph-real-estate-...with-mike-kelley
Качество: WEBRip
Формат: MP4
Видео кодек: AVC1
Аудио кодек: AAC
Видео: WEB-Rip | MP4 | AVC1 | 1280x720 | 2297 Kbps | 23.976 fps
Аудио: AAC | 157 Kbps | 48 KHz | 2 channels

Список раздаваемого материала

Chapter 1
0:00:00 Mike's Story
0:08:18 What Is Architecture Photography?
0:16:04 What Gear Do I Need?
0:35:49 Intro To Photoshop
1:13:00 Real Estate Photography
1:17:15 Bedroom
1:26:40 Bedroom 2
1:30:13 Kitchen
1:35:48 Dining room
1:43:12 Living room
Chapter 2
0:00:00 Starting Your Business
0:06:00 Marketing
0:18:08 Architecture and Interior Design
0:20:33 Daytime kitchen
0:35:07 Living room
0:49:49 Bathroom
0:53:35 Bedroom
1:01:10 Daytime exterior
1:10:47 Sunroom
1:21:22 Dealing With Clients
1:30:35 Pricing Your Work
Chapter 3
0:00:00 Architecture and Interior design continued (shooting at dusk)
0:00:00 Kitchen at dusk
0:42:42 House exterior at dusk (photoshop file included for you to follow along)
Chatper 4
0:00:00 Commercial Photography
0:00:00 Husk interior
0:29:33 Husk bar
0:41:30 Husk at dusk
1:14:00 McCrady's main dining room
1:37:30 McCrady's "long room"

Скриншоты

Media Info

General
Format : MPEG-4
Codec ID : M4V
File size : 1.87 GiB
Duration : 1h 48mn
Overall bit rate mode : Variable
Overall bit rate : 2 458 Kbps
Encoded date : UTC 2013-11-15 01:49:24
Tagged date : UTC 2013-11-15 01:50:43
©TIM : 00:00:00:00
©TSC : 24000
©TSZ : 1001
Video #1
ID : 1
Format : AVC
Format/Info : Advanced Video Codec
Format profile : Main@L3.1
Format settings, CABAC : No
Format settings, ReFrames : 2 frames
Codec ID : avc1
Codec ID/Info : Advanced Video Coding
Duration : 1h 48mn
Bit rate mode : Variable
Bit rate : 2 297 Kbps
Maximum bit rate : 2 640 Kbps
Width : 1 280 pixels
Height : 720 pixels
Display aspect ratio : 16:9
Frame rate mode : Constant
Frame rate : 23.976 fps
Standard : NTSC
Color space : YUV
Chroma subsampling : 4:2:0
Bit depth : 8 bits
Scan type : Progressive
Bits/(Pixel*Frame) : 0.104
Stream size : 1.75 GiB (93%)
Language : English
Encoded date : UTC 2013-11-15 01:49:24
Tagged date : UTC 2013-11-15 01:49:24
Audio #2
ID : 2
Format : AAC
Format/Info : Advanced Audio Codec
Format profile : LC
Codec ID : 40
Duration : 1h 48mn
Source duration : 1h 48mn
Bit rate mode : Variable
Bit rate : 157 Kbps
Maximum bit rate : 254 Kbps
Channel(s) : 2 channels
Channel positions : Front: L R
Sampling rate : 48.0 KHz
Compression mode : Lossy
Stream size : 122 MiB (6%)
Source stream size : 122 MiB (6%)
Language : English
Encoded date : UTC 2013-11-15 01:49:24
Tagged date : UTC 2013-11-15 01:49:24

[Цитировать]

Прям дико захотел этот туториал, а потом посмотрел на цену и приуныл( А тут такое спасенье, спасибо тебе, автор, ты прям сделал мой день!

[Цитировать]

top torrent !
Показать сообщения:    

Текущее время: 20-Янв 23:01

Часовой пояс: UTC + 3


Вы не можете начинать темы
Вы не можете отвечать на сообщения
Вы не можете редактировать свои сообщения
Вы не можете удалять свои сообщения
Вы не можете голосовать в опросах
Вы не можете прикреплять файлы к сообщениям
Вы не можете скачивать файлы

Сайт не предоставляет электронные версии произведений, а занимается лишь коллекционированием и каталогизацией ссылок, присылаемых и публикуемых на форуме нашими читателями. Если вы являетесь правообладателем какого-либо представленного материала и не желаете, чтобы ссылка на него находилась в нашем каталоге, свяжитесь с нами, и мы незамедлительно удалим ее. Файлы для обмена на трекере предоставлены пользователями сайта, и администрация не несет ответственности за их содержание. Просьба не заливать файлы, защищенные авторскими правами, а также файлы нелегального содержания!