[Цитировать]

«Когда охотник становится жертвой»

Год выпуска: 2016
Производство: США / Sony, Screen Gems, Stage 6 Films, Ghost House Pictures, Good Universe
Жанр: Ужасы, триллер, криминал
Режиссер: Федерико Альварес
Продюсеры: Федерико Альварес, Сэм Рэйми, Дэррин Браун
Актеры: Стивен Лэнг, Джейн Леви, Дилан Миннетт, Дэниэл Дзоватто, Эмма Берковичи, Франциска Тёрёчик, Кристиан Сахиа, Катя Бокор, Сергей Онопко, Оливия Гиллис
Описание:
Грабители забираются в дом одинокого слепого старика с целью украсть огромную сумму, которая, по слухам, спрятана где-то внутри. Казалось бы — что может быть проще, чем вынести деньги из дома практически беспомощного человека. Но они жестоко ошибаются: преследуемый становится преследователем. И тайна, которую он хранит, гораздо страшнее, чем обычные пенсионные накопления.
Перевод: Профессиональный (полное дублирование) + Авторский (одноголосый, закадровый) [Д.Есарев]
Субтитры: Английские, русские-Дата мировой премьеры: 12 марта 2016
Дата российской премьеры: 25 августа 2016, «WDSSPR»
[img]http://не правильная ссылка!/imdb/pic/4160708.gif[/img] -Продолжительность: 01:28:27
Качество видео: DVD5
Видео: MPEG-2, 720x480@853x480 (NTSC 16:9), ~5600 Кбит/сек
Аудио 1: AC3 5.1, 448 Кбит/сек [Английский - оригинал]
Аудио 2: AC3 5.1, 448 Кбит/сек [Русский - дублированный]
Аудио 3: AC3 5.1, 448 Кбит/сек [Русский - одноголосый закадровый (Д.Есарев)]
Доп. материалы: Не убежать, Человек в темноте

DVDInfo:

Title: Don't Breathe (2016) DVD5 NTSC
Size: 4.26 Gb ( 4 462 744,00 KBytes ) - DVD-5
Enabled regions: 1, 2, 3, 4, 5, 6, 7, 8
VTS_01 :
Play Length: 01:28:27
Video: NTSC 16:9 (720x480) VBR, Auto Letterboxed
Audio:
English (Dolby AC3, 6 ch)
Russian (Dolby AC3, 6 ch)
Russian (Dolby AC3, 6 ch)
Subtitles:
English
English
Russian
Russian
VTS_02 :
Play Length: 00:02:56+00:03:17+00:00:01+00:00:01+00:00:01
Video: NTSC 16:9 (720x480) VBR, Auto Letterboxed
Audio:
English (Dolby AC3, 2 ch)
* Menus Information *
VIDEO_TS Menu
Video:
NTSC 16:9 (720x480) VBR
Auto Pan&Scan
English Language Unit :
Title Menu
VTS_01 Menu
Video:
NTSC 16:9 (720x480) VBR
Auto Pan&Scan
Audio:
Not specified (Dolby AC3, 2 ch)
English Language Unit :
Root Menu
Chapter (PTT) Menu
VTS_02 Menu
Video:
NTSC 16:9 (720x480) VBR
Auto Pan&Scan
English Language Unit :
Root Menu
Chapter (PTT) Menu

MediaInfo:

Общее
Полное имя : G:ВидеоDon't Breathe (2016) DVD5 NTSCVIDEO_TSVTS_01_3.VOB
Формат : MPEG-PS
Размер файла : 1024 Мбайт
Продолжительность : 19 м.
Режим общего битрейта : Переменный
Общий поток : 7220 Кбит/сек
Видео
Идентификатор : 224 (0xE0)
Формат : MPEG Video
Версия формата : Version 2
Профиль формата : Main@Main
Параметр BVOP формата : Да
Параметр матрицы формата : Выборочная
Параметр GOP формата : Variable
Продолжительность : 19 м.
Вид битрейта : Переменный
Битрейт : 5733 Кбит/сек
Максимальный битрейт : 9800 Кбит/сек
Ширина : 720 пикселей
Высота : 480 пикселей
Соотношение сторон : 16:9
Частота кадров : 23,976 (24000/1001) кадра/сек
Цветовое пространство : YUV
Субдискретизация насыщенности : 4:2:0
Битовая глубина : 8 бит
Тип развёртки : Прогрессивная
Порядок развёртки : 2:3 Pulldown
Метод сжатия : С потерями
Бит/(Пиксели*Кадры) : 0.692
Временной код первого кадра : 01:43:49;11
Оригинал временного кода : Group of pictures header
GOP, открыто/закрыто : Открыто
GOP, открыто/закрыто на первом кадре : Закрыто
Размер потока : 813 Мбайт (79%)
Аудио #1
Идентификатор : 189 (0xBD)-128 (0x80)
Формат : AC-3
Формат/Информация : Audio Coding 3
Расширение режима : CM (complete main)
Параметр Endianness формата : Big
Режим смешивания : DVD-Video
Продолжительность : 19 м.
Вид битрейта : Постоянный
Битрейт : 448 Кбит/сек
Каналы : 6 каналов
Расположение каналов : Front: L C R, Side: L R, LFE
Частота : 48,0 КГц
Частота кадров : 31,250 кадров/сек (1536 spf)
Метод сжатия : С потерями
Задержка видео : -404 мс.
Размер потока : 63,5 Мбайт (6%)
Аудио #2
Идентификатор : 189 (0xBD)-130 (0x82)
Формат : AC-3
Формат/Информация : Audio Coding 3
Расширение режима : CM (complete main)
Параметр Endianness формата : Big
Режим смешивания : DVD-Video
Продолжительность : 19 м.
Вид битрейта : Постоянный
Битрейт : 448 Кбит/сек
Каналы : 6 каналов
Расположение каналов : Front: L C R, Side: L R, LFE
Частота : 48,0 КГц
Частота кадров : 31,250 кадров/сек (1536 spf)
Метод сжатия : С потерями
Задержка видео : -404 мс.
Размер потока : 63,5 Мбайт (6%)
Аудио #3
Идентификатор : 189 (0xBD)-131 (0x83)
Формат : AC-3
Формат/Информация : Audio Coding 3
Расширение режима : CM (complete main)
Параметр Endianness формата : Big
Режим смешивания : DVD-Video
Продолжительность : 19 м.
Вид битрейта : Постоянный
Битрейт : 448 Кбит/сек
Каналы : 6 каналов
Расположение каналов : Front: L C R, Side: L R, LFE
Частота : 48,0 КГц
Частота кадров : 31,250 кадров/сек (1536 spf)
Метод сжатия : С потерями
Задержка видео : -404 мс.
Размер потока : 63,5 Мбайт (6%)
Меню

Доп. информация:

Исходник: [url=http://не правильная ссылка!/torrent/544175/ne-dyshi_dont-breathe-2016-dvd9-d-a-custom]Не дыши / Don't Breathe (2016) DVD9 | D, А | Custom[/url]
Удалены: часть доп материалов, с описанием и с комментариями звуковая дорожка (в меню кнопки затёрты).
Команды диска переписаны заново, оставлено два VTS.
Видео диска не сжималось!
Меню: статичное, недействующие кнопки затерты и закрыты.
Обработка и сжатие: DVD ReMake Pro + Работа с меню (Adobe PhotoShop и MuxMan).

Скриншоты меню:


Скриншоты:
Показать сообщения:    

Текущее время: 21-Фев 03:48

Часовой пояс: UTC + 3


Вы не можете начинать темы
Вы не можете отвечать на сообщения
Вы не можете редактировать свои сообщения
Вы не можете удалять свои сообщения
Вы не можете голосовать в опросах
Вы не можете прикреплять файлы к сообщениям
Вы не можете скачивать файлы

Сайт не предоставляет электронные версии произведений, а занимается лишь коллекционированием и каталогизацией ссылок, присылаемых и публикуемых на форуме нашими читателями. Если вы являетесь правообладателем какого-либо представленного материала и не желаете, чтобы ссылка на него находилась в нашем каталоге, свяжитесь с нами, и мы незамедлительно удалим ее. Файлы для обмена на трекере предоставлены пользователями сайта, и администрация не несет ответственности за их содержание. Просьба не заливать файлы, защищенные авторскими правами, а также файлы нелегального содержания!