[Цитировать]


Информация о фильме
Название: Кукутики
Год выхода: 2016
Жанр: Музыка, детский
Режиссер: Евгения Коновалова
В ролях: Кукутики
О фильме:
Кукутики - веселые песенки и поучительные для детей. Пойте веселые детские песни и танцуйте вместе с нами! Слова песни очень простые и запоминающиеся, малыши будут в восторге, ведь эта песенка про их любимых Белку и Стрелку из Озорной семейки! А еще все малыши обожают песни и мультики про космос и про ракеты.
Страна: Россия
Студия: БИГ ПАПА
Продолжительность: 01:00:16
Перевод: Не требуется
Файл
Кодек: XviD
Качество: WEB-DLRip
Видео: 720x400 (1.80:1), 25 fps, XviD build 73 ~1234 kbps avg, 0.17 bit/pixel
Звук: 44.100 kHz, MPEG Layer 3, 2 ch, ~128.00 kbps avg
Субтитры: Отсутствуют
Семпл

Создатели

Слова: Анастасия Трофимова
Музыка: Елизавета Романова
Аранжировка: Денис Воронцов
Художник: Мария Круглякова
Мультипликация: Евгения Коновалова
Креативный продюсер: Рустам Салахов
Генеральный директор: Артур Днепровский

MI

General
Complete name : D:Изготовление рипаKykytiki-sbornik.webdlrip by shkiper.avi
Format : AVI
Format/Info : Audio Video Interleave
File size : 591 MiB
Duration : 1 h 0 min
Overall bit rate : 1 372 kb/s
Writing application : VirtualDubMod 1.5.10.3 | www.virtualdub-fr.org || (build 2550/release)
Writing library : VirtualDubMod build 2550/release
Video
ID : 0
Format : MPEG-4 Visual
Format profile : Advanced Simple@L5
Format settings, BVOP : 1
Format settings, QPel : No
Format settings, GMC : No warppoints
Format settings, Matrix : Custom
Codec ID : XVID
Codec ID/Hint : XviD
Duration : 1 h 0 min
Bit rate : 1 235 kb/s
Width : 720 pixels
Height : 400 pixels
Display aspect ratio : 16:9
Frame rate : 25.000 FPS
Color space : YUV
Chroma subsampling : 4:2:0
Bit depth : 8 bits
Scan type : Progressive
Compression mode : Lossy
Bits/(Pixel*Frame) : 0.171
Stream size : 532 MiB (90%)
Writing library : XviD 73
Audio
ID : 1
Format : MPEG Audio
Format version : Version 1
Format profile : Layer 3
Codec ID : 55
Codec ID/Hint : MP3
Duration : 1 h 0 min
Bit rate mode : Constant
Bit rate : 128 kb/s
Channel(s) : 2 channels
Sampling rate : 44.1 kHz
Compression mode : Lossy
Stream size : 55.2 MiB (9%)
Alignment : Split accross interleaves
Interleave, duration : 40 ms (1.00 video frame)
Interleave, preload duratio : 500 ms
Writing library : LAME3.99r
Encoding settings : -m s -V 4 -q 2 -lowpass 17 -b 128

Скриншоты

Релиз от:
Показать сообщения:    

Текущее время: 21-Фев 03:48

Часовой пояс: UTC + 3


Вы не можете начинать темы
Вы не можете отвечать на сообщения
Вы не можете редактировать свои сообщения
Вы не можете удалять свои сообщения
Вы не можете голосовать в опросах
Вы не можете прикреплять файлы к сообщениям
Вы не можете скачивать файлы

Сайт не предоставляет электронные версии произведений, а занимается лишь коллекционированием и каталогизацией ссылок, присылаемых и публикуемых на форуме нашими читателями. Если вы являетесь правообладателем какого-либо представленного материала и не желаете, чтобы ссылка на него находилась в нашем каталоге, свяжитесь с нами, и мы незамедлительно удалим ее. Файлы для обмена на трекере предоставлены пользователями сайта, и администрация не несет ответственности за их содержание. Просьба не заливать файлы, защищенные авторскими правами, а также файлы нелегального содержания!