[Цитировать]

- Ле-Ман / Le Mans (1971) DVDRip [H.264] - Производство: США / Cinema Center Films, Solar Productions
Жанр: Боевик, Драма, Приключения, Спорт
Режиссер: Ли Х. Кацин
Актеры: Стив МакКуин, Зигфрид Раух, Эльга Андерсен, Рональд Ли-Хант, Фред Халтинер, Люк Меренда, Кристофер Вейт, Луиз Эдлинд, Анджело Инфанти, Жан-Клод Берк
Описание:
За «золото» Ле-Мана сражаются немец Шталер на Ferrari и действующий чемпион — американец Майкл Делани на Gulf Porsche. 24-часовой марафон требует максимальной концентрации и всегда проходит на пике нервного напряжения.
А на этот раз Делани нервничает вдвойне: год назад по его вине на этой же трассе произошла серьезная авария, в которой погиб его друг Белгетти, пилот Ferrari. Перед началом гонки у Майкла был непростой разговор с Лизой, вдовой Белгетти… И теперь чемпион не может отделаться от странного предчувствия…

Возраст: 12+ (зрителям, достигшим 12 лет)
Рейтинг MPAA: G (нет возрастных ограничений)
Релиз от: Охрана (NNM-CLUB)
Продолжительность: 01:44:11
Качество видео: DVDRip
Перевод: Двуголосый закадровый, авторский
Субтитры: Отсутствуют
Видео: AVC/H.264, 720x304, ~1830 Kbps
Аудио 1: Русский, AC3, 2 ch, 192 Kbps, 48.0 kHz (DVO, Премьер Видео Фильм)
Аудио 2: Русский, AC3, 2 ch, 192 Kbps, 48.0 kHz (AVO, В. Сонькин)
Аудио 3: Английский, AC3, 2 ch, 192 Kbps, 48.0 kHz (Оригинал)
General
Unique ID : 241486987104243049568017253948601835764 (0xB5ACB3B3F038DC4B96826559CAE2A0F4)
Complete name : F:\Downloads\Ле Ман. 1971. NNMCLUB.mkv
Format : Matroska
Format version : Version 4 / Version 2
File size : 1.75 GiB
Duration : 1h 44mn
Overall bit rate : 2 408 Kbps
Encoded date : UTC 2017-01-08 13:27:06
Writing application : mkvmerge v7.0.0 ('Where We Going') 32bit built on Jun 9 2014 15:08:34
Writing library : libebml v1.3.0 + libmatroska v1.4.1
DURATION : 01:44:11.584000000
NUMBER_OF_FRAMES : 195362
NUMBER_OF_BYTES : 150038016
_STATISTICS_WRITING_APP : mkvmerge v7.0.0 ('Where We Going') 32bit built on Jun 9 2014 15:08:34
_STATISTICS_WRITING_DATE_UTC : 2017-01-08 13:27:06
_STATISTICS_TAGS : BPS DURATION NUMBER_OF_FRAMES NUMBER_OF_BYTES
Video
ID : 1
Format : AVC
Format/Info : Advanced Video Codec
Format profile : High@L3.1
Format settings, CABAC : Yes
Format settings, ReFrames : 8 frames
Codec ID : V_MPEG4/ISO/AVC
Duration : 1h 44mn
Bit rate : 1 830 Kbps
Width : 720 pixels
Height : 304 pixels
Display aspect ratio : 2.35:1
Frame rate mode : Constant
Frame rate : 25.000 fps
Color space : YUV
Chroma subsampling : 4:2:0
Bit depth : 8 bits
Scan type : Progressive
Bits/(Pixel*Frame) : 0.334
Stream size : 1.30 GiB (74%)
Title : Le Mans
Writing library : x264 core 125 r2208 d9d2288
Encoding settings : cabac=1 / ref=8 / deblock=1:-1:-1 / analyse=0x3:0x133 / me=umh / subme=9 / psy=1 / psy_rd=1.00:0.10 / mixed_ref=1 / me_range=32 / chroma_me=1 / trellis=2 / 8x8dct=1 / cqm=0 / deadzone=21,11 / fast_pskip=0 / chroma_qp_offset=-3 / threads=6 / lookahead_threads=1 / sliced_threads=0 / nr=0 / decimate=1 / interlaced=0 / bluray_compat=0 / constrained_intra=0 / bframes=3 / b_pyramid=2 / b_adapt=2 / b_bias=0 / direct=3 / weightb=1 / open_gop=0 / weightp=2 / keyint=250 / keyint_min=25 / scenecut=40 / intra_refresh=0 / rc_lookahead=60 / rc=2pass / mbtree=1 / bitrate=1830 / ratetol=1.0 / qcomp=0.60 / qpmin=0 / qpmax=69 / qpstep=4 / cplxblur=20.0 / qblur=0.5 / ip_ratio=1.40 / aq=1:1.00
Language : English
Default : Yes
Forced : No
Audio #1
ID : 2
Format : AC-3
Format/Info : Audio Coding 3
Mode extension : CM (complete main)
Format settings, Endianness : Big
Codec ID : A_AC3
Duration : 1h 44mn
Bit rate mode : Constant
Bit rate : 192 Kbps
Channel(s) : 2 channels
Channel positions : Front: L R
Sampling rate : 48.0 KHz
Bit depth : 16 bits
Compression mode : Lossy
Stream size : 143 MiB (8%)
Title : Двуголосый закадровый, Премьер Видео Фильм
Language : Russian
Default : Yes
Forced : No
Audio #2
ID : 3
Format : AC-3
Format/Info : Audio Coding 3
Mode extension : CM (complete main)
Format settings, Endianness : Big
Codec ID : A_AC3
Duration : 1h 44mn
Bit rate mode : Constant
Bit rate : 192 Kbps
Channel(s) : 2 channels
Channel positions : Front: L R
Sampling rate : 48.0 KHz
Bit depth : 16 bits
Compression mode : Lossy
Stream size : 143 MiB (8%)
Title : Авторский, В. Сонькин
Language : Russian
Default : No
Forced : No
Audio #3
ID : 4
Format : AC-3
Format/Info : Audio Coding 3
Mode extension : CM (complete main)
Format settings, Endianness : Big
Codec ID : A_AC3
Duration : 1h 44mn
Bit rate mode : Constant
Bit rate : 192 Kbps
Channel(s) : 2 channels
Channel positions : Front: L R
Sampling rate : 48.0 KHz
Bit depth : 16 bits
Compression mode : Lossy
Stream size : 143 MiB (8%)
Title : Оригинал
Language : English
Default : No
Forced : NoСкриншоты:

Дополнительные скриншоты:

Все одноименные релизы в КлубеВремя раздачи: с 13:00 до 01:00 МСК, выходные круглосуточно (до появления первых 3-5 скачавших)
Показать сообщения:    

Текущее время: 30-Мар 23:27

Часовой пояс: UTC + 3


Вы не можете начинать темы
Вы не можете отвечать на сообщения
Вы не можете редактировать свои сообщения
Вы не можете удалять свои сообщения
Вы не можете голосовать в опросах
Вы не можете прикреплять файлы к сообщениям
Вы не можете скачивать файлы

Сайт не предоставляет электронные версии произведений, а занимается лишь коллекционированием и каталогизацией ссылок, присылаемых и публикуемых на форуме нашими читателями. Если вы являетесь правообладателем какого-либо представленного материала и не желаете, чтобы ссылка на него находилась в нашем каталоге, свяжитесь с нами, и мы незамедлительно удалим ее. Файлы для обмена на трекере предоставлены пользователями сайта, и администрация не несет ответственности за их содержание. Просьба не заливать файлы, защищенные авторскими правами, а также файлы нелегального содержания!