[Цитировать]

- Пожарные Чикаго / Чикаго в Огне / Chicago Fire (2016) WEB-DLRip- Производство: США
Жанр: драма
Режиссер: Джо Чаппелль
Актеры: Джесси Спенсер, Тэйлор Кинни, Эамон Уолкер, Дэвид Эйгенберг, Лорен Герман, Терри Ривз, Моника Реймунд и др.
Описание:
Захватывающий и волнующий сериал «Пожарные Чикаго» рассказывает о сложной, опасной и наполненной драматизмом работе пожарных и спасателей. Сюжет сериала наполнен адреналином, риском и опасными моментами, с которыми главные герои должны справиться. Команда пожарных Чикаго – это смелые, умные, принимающие моментальные решения люди. Вся их работа направлена на спасение людей и их имущества от огня, поэтому с каждой серией они действуют всё более решительно и дружно.

Возраст: 16+ (зрителям, достигшим 16 лет)
Релиз от: Шадинский
Продолжительность: ~00:43:00 серия
Качество видео: WEB-DLRip
Перевод: Одноголосый закадровый, профессиональный - Шадинский
Видео: Xvid, 720x400 (16:9), ~1799 Kbps
Аудио: AC3, 2 ch, 192 Kbps, CBR
General
Complete name : E:\Video2\Сериалы\Chicago.Fire.S05\Chicago.Fire.S05E01.avi
Format : AVI
Format/Info : Audio Video Interleave
File size : 614 MiB
Duration : 42 min 55 s
Overall bit rate : 2 001 kb/s
Writing application : VirtualDubMod 1.5.10.3 | www.virtualdub-fr.org || (build 2550/release)
Writing library : VirtualDubMod build 2550/release
Video
ID : 0
Format : MPEG-4 Visual
Format profile : Advanced Simple@L5
Format settings, BVOP : 1
Format settings, QPel : No
Format settings, GMC : No warppoints
Format settings, Matrix : Custom
Codec ID : XVID
Codec ID/Hint : XviD
Duration : 42 min 55 s
Bit rate : 1 799 kb/s
Width : 720 pixels
Height : 400 pixels
Display aspect ratio : 16:9
Frame rate : 23.976 (24000/1001) FPS
Color space : YUV
Chroma subsampling : 4:2:0
Bit depth : 8 bits
Scan type : Progressive
Compression mode : Lossy
Bits/(Pixel*Frame) : 0.261
Stream size : 552 MiB (90%)
Writing library : XviD 73
Audio
ID : 1
Format : AC-3
Format/Info : Audio Coding 3
Mode extension : CM (complete main)
Format settings, Endianness : Big
Codec ID : 2000
Duration : 42 min 55 s
Bit rate mode : Constant
Bit rate : 192 kb/s
Channel(s) : 2 channels
Channel positions : Front: L R
Sampling rate : 48.0 kHz
Frame rate : 31.250 FPS (1536 spf)
Compression mode : Lossy
Stream size : 59.0 MiB (10%)
Alignment : Split accross interleaves
Interleave, duration : 42 ms (1.00 video frame)
Interleave, preload duration : 500 ms

Внимание! Раздача ведётся путём добавления новых серий

Внимание! Раздача ведётся путём добавления новых серий; при каждом добавлении создаётся новый торрент.
Чтобы начать докачку новой серии, пользователям необходимо сделать следующее:
1. Остановить скачивание;
2. Удалить старый торрент у себя из клиента (старые серии удалять не надо);
3. Скачать новый торрент и запустить его у себя в клиенте вместо старого, при этом указать клиенту путь в старую папку куда и должно происходить скачивание новых серий. Ваш клиент при этом должен произвести хеширование (проверку) старой папки и будет докачивать только те серии, которых у вас ещё нет. Старые серии при этом не удаляются, а продолжают раздаваться! Eсли вы уже удалили старые серии, то предотвратить повторную закачку старых серий можно, отжав галочку в соответствующих местах при запуске нового торрента.
Скриншоты:
Все одноименные релизы в КлубеВремя раздачи: с 19:00 - 23:00 (до появления первых 3-5 скачавших)
Показать сообщения:    

Текущее время: 20-Янв 22:59

Часовой пояс: UTC + 3


Вы не можете начинать темы
Вы не можете отвечать на сообщения
Вы не можете редактировать свои сообщения
Вы не можете удалять свои сообщения
Вы не можете голосовать в опросах
Вы не можете прикреплять файлы к сообщениям
Вы не можете скачивать файлы

Сайт не предоставляет электронные версии произведений, а занимается лишь коллекционированием и каталогизацией ссылок, присылаемых и публикуемых на форуме нашими читателями. Если вы являетесь правообладателем какого-либо представленного материала и не желаете, чтобы ссылка на него находилась в нашем каталоге, свяжитесь с нами, и мы незамедлительно удалим ее. Файлы для обмена на трекере предоставлены пользователями сайта, и администрация не несет ответственности за их содержание. Просьба не заливать файлы, защищенные авторскими правами, а также файлы нелегального содержания!