[Цитировать]


Информация о фильме
Название: Бен-Гур
Оригинальное название: Ben-Hur
Год выхода: 2016
Жанр: Драма, приключения, история
Режиссер: Тимур Бекмамбетов
В ролях: Джек Хьюстон, Тоби Кеббелл, Родриго Санторо, Назанин Бониади, Айелет Зурер, Йохан Филип Асбек, София Блэк-Д`Элиа, Морган Фримен, Марван Кензари, Мойзес Ариас
О фильме:
Иудея, 26 год н.э. Иуда Бен-Гур - мажор из знатного рода иерусалимских депутатов, разбогатевших на торговле кожаными туниками из Турции. Вся его жизнь состоит из веселья, дорогих лошадей и стрельбы по живым мишеням. Его сводный брат-римлянин Мессала, устав от взрослых развлечений, подается в римскую армию по духовным соображениям. Спустя несколько лет он возвращается в Иерусалим в качестве трибуна, чтобы возглавить ограниченный контингент римских миротворцев, осуществляющих временную миссию по поддержанию правопорядка на территории государства-клиента. Помимо интернационального долга в обязанности трибуна входит и борьба с терроризмом. Мессала обращается за помощью к своему сводному брату, но для того Иудея оказывается превыше всего. А тут еще и неудачное покушение на прокуратора, в котором ложно обвиняют всю семью Гуров. Родственные связи Иуде не помогают. Ему предстоит пережить годы скоростной гребли на галерах, чтобы вернуться в родной дом, собрать родню по кусочкам и отомстить предателю в самой фееричной гонке на колесницах, которую только видел Рим.
[img]http://не правильная ссылка!/imdb/pic/2638144.gif[/img]
Страна: США
Студия: LightWorkers Media, Metro-Goldwyn-Mayer (MGM), Paramount Pictures
Продолжительность: 02:04:43
Перевод: Дублированный | iTunes
Файл
Качество: BDRip 720p
Видео: MPEG-4 AVC, 1280x534 (2,40:1), 23.976 fps 6573 Кbit/s, 0.401 bit/pixel
Аудио #1: 48 kHz, AC3, 5.1, 384 Kbps | русский | Дублированный |
Аудио #2: 48 kHz, AC3, 5.1, 640 kbps |английский | Оригинал |
Субтитры: Английские
Семпл

Инфо-файл

Общее
Уникальный идентификатор : 187199541000597398923929915216196677906 (0x8CD551F5EE57C6948A903FFAABEE3112)
Полное имя : Ben-Hur.2016.720p.BluRay.x264.Rus.Eng.mkv
Формат : Matroska
Версия формата : Version 4 / Version 2
Размер файла : 6,75 Гбайт
Продолжительность : 2 ч. 4 м.
Общий поток : 7751 Кбит/сек
Название фильма : Бен-Гур (2016)
Дата кодирования : UTC 2017-01-11 21:15:18
Программа кодирования : mkvmerge v9.5.0 ('Quiet Fire') 64bit
Библиотека кодирования : libebml v1.3.4 + libmatroska v1.4.5
DURATION : 02:03:19.328000000
NUMBER_OF_FRAMES : 231229
NUMBER_OF_BYTES : 355167744
_STATISTICS_WRITING_APP : mkvmerge v9.5.0 ('Quiet Fire') 64bit
_STATISTICS_WRITING_DATE_UTC : 2017-01-11 21:15:18
_STATISTICS_TAGS : BPS DURATION NUMBER_OF_FRAMES NUMBER_OF_BYTES
Видео
Идентификатор : 1
Формат : AVC
Формат/Информация : Advanced Video Codec
Профиль формата : High@L4.1
Параметр CABAC формата : Да
Параметр ReFrames формата : 12 кадров
Идентификатор кодека : V_MPEG4/ISO/AVC
Продолжительность : 2 ч. 4 м.
Битрейт : 6573 Кбит/сек
Ширина : 1280 пикселей
Высота : 534 пикселя
Соотношение сторон : 2,40:1
Режим частоты кадров : Постоянный
Частота кадров : 23,976 кадра/сек
Цветовое пространство : YUV
Субдискретизация насыщенности : 4:2:0
Битовая глубина : 8 бит
Тип развёртки : Прогрессивная
Бит/(Пиксели*Кадры) : 0.401
Размер потока : 5,73 Гбайт (85%)
Заголовок : Ben-Hur.2016.720p.BluRay.x264.Rus.Eng
Библиотека кодирования : x264 core 148 r2721 72d53ab
Настройки программы : cabac=1 / ref=12 / deblock=1:-3:-3 / analyse=0x3:0x113 / me=umh / subme=10 / psy=1 / psy_rd=1.05:0.00 / mixed_ref=1 / me_range=32 / chroma_me=1 / trellis=2 / 8x8dct=1 / cqm=1 / deadzone=21,11 / fast_pskip=0 / chroma_qp_offset=-1 / threads=12 / lookahead_threads=2 / sliced_threads=0 / nr=0 / decimate=1 / interlaced=0 / bluray_compat=0 / constrained_intra=0 / bframes=8 / b_pyramid=2 / b_adapt=2 / b_bias=0 / direct=3 / weightb=1 / open_gop=0 / weightp=2 / keyint=230 / keyint_min=23 / scenecut=40 / intra_refresh=0 / rc_lookahead=40 / rc=crf / mbtree=0 / crf=14.4 / qcomp=0.64 / qpmin=10 / qpmax=69 / qpstep=4 / vbv_maxrate=62500 / vbv_bufsize=78125 / crf_max=0.0 / nal_hrd=none / filler=0 / ip_ratio=1.30 / pb_ratio=1.20 / aq=1:0.75
Язык : English
Default : Да
Forced : Нет
DURATION : 02:04:43.476000000
NUMBER_OF_FRAMES : 179424
NUMBER_OF_BYTES : 6294881919
_STATISTICS_WRITING_APP : mkvmerge v9.5.0 ('Quiet Fire') 64bit
_STATISTICS_WRITING_DATE_UTC : 2017-01-11 21:15:18
_STATISTICS_TAGS : BPS DURATION NUMBER_OF_FRAMES NUMBER_OF_BYTES
Аудио #1
Идентификатор : 2
Формат : AC-3
Формат/Информация : Audio Coding 3
Расширение режима : CM (complete main)
Параметр Endianness формата : Big
Идентификатор кодека : A_AC3
Продолжительность : 2 ч. 4 м.
Вид битрейта : Постоянный
Битрейт : 384 Кбит/сек
Каналы : 6 каналов
Расположение каналов : Front: L C R, Side: L R, LFE
Частота : 48,0 КГц
Метод сжатия : С потерями
Размер потока : 343 Мбайт (5%)
Заголовок : Dub | DD 5.1 @ 384 kbps - iTunes
Язык : Russian
Default : Нет
Forced : Нет
Аудио #2
Идентификатор : 3
Формат : AC-3
Формат/Информация : Audio Coding 3
Расширение режима : CM (complete main)
Параметр Endianness формата : Big
Идентификатор кодека : A_AC3
Продолжительность : 2 ч. 4 м.
Вид битрейта : Постоянный
Битрейт : 640 Кбит/сек
Каналы : 6 каналов
Расположение каналов : Front: L C R, Side: L R, LFE
Частота : 48,0 КГц
Метод сжатия : С потерями
Размер потока : 571 Мбайт (8%)
Язык : English
Default : Да
Forced : Нет
Текст #1
Идентификатор : 4
Формат : UTF-8
Идентификатор кодека : S_TEXT/UTF8
Идентификатор кодека/Информация : UTF-8 Plain Text
Язык : English
Default : Да
Forced : Нет
Текст #2
Идентификатор : 5
Формат : UTF-8
Идентификатор кодека : S_TEXT/UTF8
Идентификатор кодека/Информация : UTF-8 Plain Text
Заголовок : SDH
Язык : English
Default : Нет
Forced : Нет
Меню
00:00:00.000 : en:Chapter 1
00:07:03.882 : en:Chapter 2
00:15:42.942 : en:Chapter 3
00:19:47.895 : en:Chapter 4
00:27:25.853 : en:Chapter 5
00:33:09.362 : en:Chapter 6
00:41:07.215 : en:Chapter 7
00:48:20.064 : en:Chapter 8
00:55:21.652 : en:Chapter 9
01:05:41.229 : en:Chapter 10
01:13:15.891 : en:Chapter 11
01:22:26.900 : en:Chapter 12
01:31:30.193 : en:Chapter 13
01:39:55.656 : en:Chapter 14
01:46:30.801 : en:Chapter 15
01:54:54.638 : en:Chapter 16

Скриншоты



Показать сообщения:    

Текущее время: 30-Мар 23:28

Часовой пояс: UTC + 3


Вы не можете начинать темы
Вы не можете отвечать на сообщения
Вы не можете редактировать свои сообщения
Вы не можете удалять свои сообщения
Вы не можете голосовать в опросах
Вы не можете прикреплять файлы к сообщениям
Вы не можете скачивать файлы

Сайт не предоставляет электронные версии произведений, а занимается лишь коллекционированием и каталогизацией ссылок, присылаемых и публикуемых на форуме нашими читателями. Если вы являетесь правообладателем какого-либо представленного материала и не желаете, чтобы ссылка на него находилась в нашем каталоге, свяжитесь с нами, и мы незамедлительно удалим ее. Файлы для обмена на трекере предоставлены пользователями сайта, и администрация не несет ответственности за их содержание. Просьба не заливать файлы, защищенные авторскими правами, а также файлы нелегального содержания!