[Цитировать]

-Инферно / Inferno
«Every clue will take him deeper»
- Информация о фильме:
♦ Страна: Венгрия, США
♦ Производство: Columbia Pictures, Imagine Entertainment, LStar Capital
♦ Год выпуска: 2016
♦ Жанр: Боевик, триллер, драма, криминал, детектив, приключения
♦ Режиссер: Рон Ховард
♦ В ролях: Том Хэнкс, Фелисити Джонс, Омар Си, Ирфан Кхан, Сидсе Бабетт Кнудсен, Бен Фостер, Ана Улару, Ида Дарвиш, Paolo Antonio Simioni, Alessandro Grimaldi
♦ Перевод: Дублированный [iTunes] + Оригинал
♦ Продолжительность: 02:01:35

♦ Субтитры: Русские форсированные, Английские форсированные, Украинские форсированные, Русские, Английские, Украинские
Описание фильма:
◈ Профессор Роберт Лэнгдон приходит в сознание в одной из итальянских больниц, полностью потеряв память. Местный врач Сиенна Брукс пытается помочь Роберту не только восстановить воспоминания, но и остановить загадочных злоумышленников, которые намерены распространить смертоносный вирус. Разгадка таинственной истории связана с «Адом» (ит. Inferno) — первой частью «Божественной комедии» Данте..

[img]http://не правильная ссылка!/imdb/pic/2140479.gif[/img]

[color=DarkRed]iTunes Meta Tags / MediaInfo / x264 лог[/color]

Sort Name: Inferno
XID: Apple:vendor_id:2016-780470
contentID: 1159466783
Screenwriters: Дэвид Кепп, Дэн Браун
Producers: Дэн Браун, Уильям М. Коннор, Анна Калп
Director: Рон Ховард
Cast: Том Хэнкс, Фелисити Джонс, Омар Си, Ирфан Кхан, Сидсе Бабетт Кнудсен, Бен Фостер, Ана Улару, Ида Дарвиш, Paolo Antonio Simioni, Alessandro Grimaldi
Studio: Columbia Pictures
Rating Annotation: Rated PG-13 for sequences of action and violence, disturbing images, some language, thematic elements and brief sensuality.
Rating: 4
Long Deion: Профессор Роберт Лэнгдон приходит в сознание в одной из итальянских больниц, полностью потеряв память. Местный врач Сиенна Брукс пытается помочь Роберту не только восстановить воспоминания, но и остановить загадочных злоумышленников, которые намерены распространить смертоносный вирус. Разгадка таинственной истории связана с "Адом" (ит. Inferno) - первой частью "Божественной комедии" Данте.
Deion: Оказавшись в самом загадочном городе Италии - Флоренции, профессор Лэнгдон, специалист по кодам, символам и истории искусства, неожиданно попадает в водоворот событий, которые способны привести к гибели всего человечества. И помешать этому может только разгадка тайны, некогда зашифрованной Данте в строках бессмертной эпической поэмы.
Release Date: 2016-10-08T08:00:00Z
Genre: Thriller
Artist: Ron Howard
Name: Inferno-General
Complete name : /Users/imac/HandBrake/Inferno.(SD).(pk).m4v
Format : MPEG-4
Codec ID : M4V
File size : 2.20 GiB
Duration : 2h 1mn
Overall bit rate mode : Variable
Overall bit rate : 2 589 Kbps
Movie name : Inferno
Performer : Ron Howard
Director : Рон Ховард
Actor : Том Хэнкс / Фелисити Джонс / Омар Си / Ирфан Кхан / Сидсе Бабетт Кнудсен / Бен Фостер / Ана Улару / Ида Дарвиш / Paolo Antonio Simioni / Alessandro Grimaldi
Screenplay by : Дэвид Кепп / Дэн Браун
Producer : Дэн Браун / Уильям М. Коннор / Анна Калп
Production studio : Columbia Pictures
Genre : Thriller
ContentType : Short Film
Deion : Оказавшись в самом загадочном городе Италии - Флоренции, профессор Лэнгдон, специалист по кодам, символам и истории искусства, неожиданно попадает в водоворот событий, которые способны привести к гибели всего человечества. И помешать этому может только разгадка тайны, некогда зашифрованной Данте в строках бессмертной эпической поэмы.
Recorded date : UTC 2016-10-08 08:00:00
Encoded date : UTC 2017-01-11 09:22:05
Tagged date : UTC 2017-01-11 09:24:46
Cover : Yes
Rating : None
Title/Sort : Inferno
LongDeion : Профессор Роберт Лэнгдон приходит в сознание в одной из итальянских больниц, полностью потеряв память. Местный врач Сиенна Брукс пытается помочь Роберту не только восстановить воспоминания, но и остановить загадочных злоумышленников, которые намерены распространить смертоносный вирус. Разгадка таинственной истории связана с "Адом" (ит. Inferno) - первой частью "Божественной комедии" Данте.
AppleStoreCatalogID : 1159466783
Vendor : Apple:vendor_id:2016-780470
ContentRating : mpaa|PG-13|300|Rated PG-13 for sequences of action and violence, disturbing images, some language, thematic elements and brief sensuality.
Video #1
ID : 1
Format : AVC
Format/Info : Advanced Video Codec
Format profile : High@L3.2
Format settings, CABAC : Yes
Format settings, ReFrames : 9 frames
Codec ID : avc1
Codec ID/Info : Advanced Video Coding
Duration : 2h 1mn
Source duration : 2h 1mn
Bit rate : 2 200 Kbps
Width : 1 024 pixels
Height : 560 pixels
Display aspect ratio : 1.85:1
Frame rate mode : Variable
Frame rate : 23.976 fps
Minimum frame rate : 23.974 fps
Maximum frame rate : 23.981 fps
Color space : YUV
Chroma subsampling : 4:2:0
Bit depth : 8 bits
Scan type : Progressive
Bits/(Pixel*Frame) : 0.160
Stream size : 1.87 GiB (85%)
Source stream size : 1.87 GiB (85%)
Title : Main Program
Writing library : x264 core 148 r2708 86b7198
Encoding settings : cabac=1 / ref=9 / deblock=1:0:0 / analyse=0x3:0x113 / me=umh / subme=9 / psy=1 / psy_rd=1.00:0.00 / mixed_ref=1 / me_range=32 / chroma_me=1 / trellis=1 / 8x8dct=1 / cqm=0 / deadzone=21,11 / fast_pskip=1 / chroma_qp_offset=-2 / threads=17 / lookahead_threads=1 / sliced_threads=0 / nr=0 / decimate=1 / interlaced=0 / bluray_compat=0 / constrained_intra=0 / bframes=6 / b_pyramid=2 / b_adapt=2 / b_bias=0 / direct=1 / weightb=1 / open_gop=0 / weightp=2 / keyint=240 / keyint_min=24 / scenecut=40 / intra_refresh=0 / rc_lookahead=40 / rc=2pass / mbtree=1 / bitrate=2200 / ratetol=1.0 / qcomp=0.60 / qpmin=0 / qpmax=69 / qpstep=4 / cplxblur=20.0 / qblur=0.5 / ip_ratio=1.40 / aq=1:1.00
Language : English
Encoded date : UTC 2017-01-11 09:22:05
Tagged date : UTC 2017-01-11 09:22:10
Color range : Limited
Color primaries : BT.709
Transfer characteristics : BT.709
Matrix coefficients : BT.709
Video #2
ID : 12
Format : JPEG
Codec ID : jpeg
Duration : 2h 1mn
Bit rate mode : Variable
Bit rate : 737 bps
Width : 640 pixels
Height : 345 pixels
Display aspect ratio : 1.85:1
Frame rate mode : Variable
Frame rate : 0.002 fps
Minimum frame rate : 0.001 fps
Maximum frame rate : 0.007 fps
Color space : YUV
Chroma subsampling : 4:2:0
Bit depth : 8 bits
Compression mode : Lossy
Bits/(Pixel*Frame) : 1.669
Stream size : 720 KiB (0%)
Title : Chapter Images
Language : English
Encoded date : UTC 2017-01-11 09:22:18
Tagged date : UTC 2017-01-11 09:22:18
Audio #1
ID : 2
Format : AAC
Format/Info : Advanced Audio Codec
Format profile : LC
Codec ID : 40
Duration : 2h 1mn
Bit rate mode : Variable
Bit rate : 126 Kbps
Maximum bit rate : 221 Kbps
Channel(s) : 2 channels
Channel positions : Front: L R
Sampling rate : 48.0 KHz
Compression mode : Lossy
Stream size : 110 MiB (5%)
Title : Russian Stereo
Language : Russian
Encoded date : UTC 2017-01-11 09:22:05
Tagged date : UTC 2017-01-11 09:22:14
Audio #2
ID : 3
Format : AAC
Format/Info : Advanced Audio Codec
Format profile : LC
Codec ID : 40
Duration : 2h 1mn
Bit rate mode : Variable
Bit rate : 127 Kbps
Maximum bit rate : 186 Kbps
Channel(s) : 2 channels
Channel positions : Front: L R
Sampling rate : 48.0 KHz
Compression mode : Lossy
Stream size : 110 MiB (5%)
Title : English Stereo
Language : English
Encoded date : UTC 2017-01-11 09:22:05
Tagged date : UTC 2017-01-11 09:22:14
Audio #3
ID : 4
Format : AAC
Format/Info : Advanced Audio Codec
Format profile : LC
Codec ID : 40
Duration : 2h 1mn
Bit rate mode : Variable
Bit rate : 126 Kbps
Maximum bit rate : 169 Kbps
Channel(s) : 2 channels
Channel positions : Front: L R
Sampling rate : 48.0 KHz
Compression mode : Lossy
Stream size : 109 MiB (5%)
Title : Ukrainian Stereo
Language : Ukrainian
Encoded date : UTC 2017-01-11 09:22:05
Tagged date : UTC 2017-01-11 09:22:14
Text #1
ID : 5
Format : Timed Text
Muxing mode : sbtl
Codec ID : tx3g
Duration : 1h 47mn
Bit rate mode : Variable
Bit rate : 3 bps
Stream size : 2.74 KiB (0%)
Title : Russian forced
Language : Russian
Encoded date : UTC 2017-01-11 09:22:05
Tagged date : UTC 2017-01-11 09:22:06
Text #2
ID : 6
Format : Timed Text
Muxing mode : sbtl
Codec ID : tx3g
Duration : 1h 8mn
Bit rate mode : Variable
Bit rate : 2 bps
Stream size : 1.13 KiB (0%)
Title : English forced
Language : English
Encoded date : UTC 2017-01-11 09:22:05
Tagged date : UTC 2017-01-11 09:22:06
Text #3
ID : 7
Format : Timed Text
Muxing mode : sbtl
Codec ID : tx3g
Duration : 1h 47mn
Bit rate mode : Variable
Bit rate : 3 bps
Stream size : 2.70 KiB (0%)
Title : Ukrainian forced
Language : Ukrainian
Encoded date : UTC 2017-01-11 09:22:05
Tagged date : UTC 2017-01-11 09:22:06
Text #4
ID : 8
Format : Timed Text
Muxing mode : sbtl
Codec ID : tx3g
Duration : 1h 56mn
Bit rate mode : Variable
Bit rate : 98 bps
Stream size : 83.4 KiB (0%)
Title : Russian full
Language : Russian
Encoded date : UTC 2017-01-11 09:22:05
Tagged date : UTC 2017-01-11 09:22:06
Text #5
ID : 9
Format : Timed Text
Muxing mode : sbtl
Codec ID : tx3g
Duration : 1h 56mn
Bit rate mode : Variable
Bit rate : 63 bps
Stream size : 53.4 KiB (0%)
Title : English full
Language : English
Encoded date : UTC 2017-01-11 09:22:05
Tagged date : UTC 2017-01-11 09:22:06
Text #6
ID : 10
Format : Timed Text
Muxing mode : sbtl
Codec ID : tx3g
Duration : 1h 56mn
Bit rate mode : Variable
Bit rate : 96 bps
Stream size : 81.8 KiB (0%)
Title : Ukrainian full
Language : Ukrainian
Encoded date : UTC 2017-01-11 09:22:05
Tagged date : UTC 2017-01-11 09:22:06
Menu #1
00:00:00.000 : Chapter 1
00:04:12.794 : Chapter 2
00:12:32.502 : Chapter 3
00:23:42.588 : Chapter 4
00:36:02.369 : Chapter 5
00:51:11.277 : Chapter 6
00:59:16.553 : Chapter 7
01:01:42.616 : Chapter 8
01:07:42.308 : Chapter 9
01:13:24.692 : Chapter 10
01:20:01.422 : Chapter 11
01:24:36.613 : Chapter 12
01:31:24.896 : Chapter 13
01:35:41.861 : Chapter 14
01:40:50.836 : Chapter 15
01:52:27.574 : Chapter 16
Menu #2
ID : 11
Codec ID : text
Duration : 2h 1mn
Language : English
Encoded date : UTC 2017-01-11 09:22:14
Tagged date : UTC 2017-01-11 09:22:14
00:00:00.000 : Chapter 1
00:04:12.794 : Chapter 2
00:12:32.502 : Chapter 3
00:23:42.588 : Chapter 4
00:36:02.369 : Chapter 5
00:51:11.277 : Chapter 6
00:59:16.553 : Chapter 7
01:01:42.616 : Chapter 8
01:07:42.308 : Chapter 9
01:13:24.692 : Chapter 10
01:20:01.422 : Chapter 11
01:24:36.613 : Chapter 12
01:31:24.896 : Chapter 13
01:35:41.861 : Chapter 14
01:40:50.836 : Chapter 15
01:52:27.574 : Chapter 16
Bit rate mode : VBR-x264 [info]: frame I:1976 Avg QP:16.05 size: 77012
x264 [info]: frame P:47800 Avg QP:19.45 size: 20464
x264 [info]: frame B:125135 Avg QP:21.26 size: 6993
x264 [info]: consecutive B-frames: 5.1% 9.5% 10.7% 26.1% 16.8% 26.2% 5.7%
x264 [info]: mb I I16..4: 13.0% 68.3% 18.7%
x264 [info]: mb P I16..4: 3.1% 13.2% 2.4% P16..4: 37.7% 18.7% 11.1% 0.0% 0.0% skip:13.7%
x264 [info]: mb B I16..4: 0.3% 1.4% 0.3% B16..8: 44.9% 7.9% 2.0% direct: 3.8% skip:39.3% L0:46.4% L1:47.4% BI: 6.2%
x264 [info]: 8x8 transform intra:70.0% inter:75.5%
x264 [info]: coded y,uvDC,uvAC intra: 77.3% 72.7% 36.8% inter: 23.4% 21.6% 1.4%
x264 [info]: i16 v,h,dc,p: 28% 15% 6% 51%
x264 [info]: i8 v,h,dc,ddl,ddr,vr,hd,vl,hu: 8% 7% 4% 11% 17% 15% 15% 12% 12%
x264 [info]: i4 v,h,dc,ddl,ddr,vr,hd,vl,hu: 9% 6% 2% 10% 16% 15% 15% 12% 13%
x264 [info]: i8c dc,h,v,p: 33% 26% 21% 20%
x264 [info]: Weighted P-Frames: Y:2.9% UV:1.6%
x264 [info]: ref P L0: 55.0% 11.8% 13.4% 5.8% 4.6% 3.2% 2.6% 1.9% 1.5% 0.2% 0.0%
x264 [info]: ref B L0: 79.1% 9.7% 4.7% 2.3% 1.6% 1.2% 1.1% 0.3%
x264 [info]: ref B L1: 95.4% 4.6%
x264 [info]: kb/s:2199.19
Технические данные файла:
♦ Качество: BDRip (Исходник: BDRemux)
♦ Формат: M4V
♦ Тип: SD (576p)
♦ Видео кодек: H.264
♦ Аудио кодек: AAC-LC,
♦ Видео: 1024x560, 1.85:1, 2 200 Kbps, 23.976 fps (0.160 bit/pixel)
♦ Аудио #1: AAC / 2.0 / 128 Kbps / 48.0 KHz | Русский/Дублированный (iTunes)
♦ Аудио #2: AAC / 2.0 / 128 Kbps / 48.0 KHz | Английский/Оригинальная дорожка
♦ Аудио #3: AAC / 2.0 / 128 Kbps / 48.0 KHz | Украинский/Дублированный (iTunes)
Скриншоты
Показать сообщения:    

Текущее время: 20-Янв 23:00

Часовой пояс: UTC + 3


Вы не можете начинать темы
Вы не можете отвечать на сообщения
Вы не можете редактировать свои сообщения
Вы не можете удалять свои сообщения
Вы не можете голосовать в опросах
Вы не можете прикреплять файлы к сообщениям
Вы не можете скачивать файлы

Сайт не предоставляет электронные версии произведений, а занимается лишь коллекционированием и каталогизацией ссылок, присылаемых и публикуемых на форуме нашими читателями. Если вы являетесь правообладателем какого-либо представленного материала и не желаете, чтобы ссылка на него находилась в нашем каталоге, свяжитесь с нами, и мы незамедлительно удалим ее. Файлы для обмена на трекере предоставлены пользователями сайта, и администрация не несет ответственности за их содержание. Просьба не заливать файлы, защищенные авторскими правами, а также файлы нелегального содержания!